Автор Alien

Страшилы / The Frighteners [Director's Cut] (1996) BDRip [720p] от HQ-ViDEO

Страшилы The Frighteners Director s Cut 1996 BDRip 720p от HQ-ViDEO

Страшилы / The Frighteners [Director's Cut] (1996) BDRip [720p]
Релиз от HQ-ViDEO

Страшилы The Frighteners Director s Cut 1996 BDRip 720p от HQ-ViDEO

Жанр: Ужасы, Фэнтези, Комедия
Год: 1996
Студия: Universal Pictures, WingNut Films
Режиссер: Питер Джексон /Peter Jackson/

В ролях: Майкл Дж. Фокс /Michael J. Fox/, Трини Альварадо /Trini Alvarado/, Питер Добсон /Peter Dobson/, Джон Эстин /John Astin/, Джеффри Комбс /Jeffrey Combs/, Ди Уоллес-Стоун /Dee Wallace-Stone/, Джейк Бьюзи /Jake Busey/, Чи МакБрайд /Chi McBride/, Джим Файф /Jim Fyfe/, Трой Эванс /Troy Evans/

Описание: Экстрасенс Фрэнк Бэннистер, который зарабатывает на жизнь тем, что за скромное вознаграждение успешно избавляет дома от полтергейста, который сам предварительно наслал, сталкивается со страшным противником — вернувшимся с того света, а вернее, задержавшемся на этом после казни, маньяком-убийцей.

Вместе с женщиной-врачом, муж которой был убит этим олицетворением зла, Фрэнк низвергает демона в ад.

Код:

            *********** The Frighteners [Director's Cut] (1996) ***********

Release Date: 04.10.2011
Release Info:
File Name .....: Strashily.1996.DUALRUS.BDRip.720p.h264.AC3.-HQ-ViDEO.mkv

Author ........: GYN

Runtime .......: 02:02:36 min
Video Format ..: MKV, H.264 codec
Video Bitrate .: 6 513 kbps
Bits per Pixel : 0.333 bit/pixel
Resolution ....: 1 280 x 544
Aspect Ratio ..: 2.35:1
Framerate .....: 23.976 fps

Audio First....: Russian AC3 Dolby Digital; 384.00 kbps; 5.1 Ch; 48 kHz
Audio Second...: Russian AC3 Dolby Digital; 448.00 kbps; 5.1 Ch; 48 kHz

Subtitle.......: Russian, English.

File Size .....: 5.58 GB
Source.........: Blu-ray Disc
IMDb:
Rating.........: 7.1/10
Link...........: http://www.imdb.com/title/tt0116365/
КиноПоиск.Ru:
Rating.........: 7.794/10
Link...........: http://www.kinopoisk.ru/level/1/film/5909/


MediaInfo


General
Complete name : Strashily.1996.DUALRUS.BDRip.720p.h264.AC3.-HQ-ViDEO.mkv
Format : Matroska
Format version : Version 2
File size : 5.58 GiB
Duration : 2h 2mn
Overall bit rate mode : Variable
Overall bit rate : 6 513 Kbps
Movie name : The Frighteners (1996)
Encoded date : UTC 2011-10-04 12:17:58
Writing application : mkvmerge v3.3.0 (‘Language’) built on Mar 24 2010 14:59:24
Writing library : libebml v0.8.0 + libmatroska v0.9.0

Video
ID : 1
Format : AVC
Format/Info : Advanced Video Codec
Format profile : High@L4.1
Format settings, CABAC : Yes
Format settings, ReFrames : 6 frames
Codec ID : V_MPEG4/ISO/AVC
Duration : 2h 2mn
Bit rate mode : Variable
Bit rate : 5 679 Kbps
Width : 1 280 pixels
Height : 544 pixels
Display aspect ratio : 2.35:1
Frame rate : 23.976 fps
Color space : YUV
Chroma subsampling : 4:2:0
Bit depth : 8 bits
Scan type : Progressive
Bits/(Pixel*Frame) : 0.333
Stream size : 4.75 GiB (85%)
Title : Encoded by GYN

Audio #1
ID : 2
Format : AC-3
Format/Info : Audio Coding 3
Mode extension : CM (complete main)
Codec ID : A_AC3
Duration : 2h 2mn
Bit rate mode : Constant
Bit rate : 384 Kbps
Channel(s) : 6 channels
Channel positions : Front: L C R, Side: L R, LFE
Sampling rate : 48.0 KHz
Bit depth : 16 bits
Compression mode : Lossy
Stream size : 337 MiB (6%)
Title : MVO (Kinomania)
Language : Russian

Audio #2
ID : 3
Format : AC-3
Format/Info : Audio Coding 3
Mode extension : CM (complete main)
Codec ID : A_AC3
Duration : 2h 2mn
Bit rate mode : Constant
Bit rate : 448 Kbps
Channel(s) : 6 channels
Channel positions : Front: L C R, Side: L R, LFE
Sampling rate : 48.0 KHz
Bit depth : 16 bits
Compression mode : Lossy
Stream size : 393 MiB (7%)
Title : DVO (Glanz)
Language : Russian

Text #1
ID : 4
Format : UTF-8
Codec ID : S_TEXT/UTF8
Codec ID/Info : UTF-8 Plain Text
Language : Russian

Text #2
ID : 5
Format : UTF-8
Codec ID : S_TEXT/UTF8
Codec ID/Info : UTF-8 Plain Text
Language : English

Язык: Русский профессиональный многоголосый перевод (Киномания) + Русский профессиональный двухголосый перевод (Гланц и Королева) + Русский авторский перевод (Гаврилов, 6ch, 448 kbps /Отдельно ) + Оригинальная дорожка (6ch, 448 kbps /Отдельно )

Субтитры: Русские, Английские.
Субтитры: Русские, Английские (полные, SDH).

Скриншоты для оценки качества (превью — увеличение по клику):

Релиз:

Извините, но комментарии закрыты.

Tags Comment Meta:
RSS Канал для комментариев