Автор Alien

Я плюю на ваши могилы / I Spit on Your Grave [UNRATED] (2010) BDRip-AVC от HQ-ViDEO

Я плюю на ваши могилы I Spit on Your Grave UNRATED 2010 BDRip от HQ-ViDEO

Я плюю на ваши могилы / I Spit on Your Grave [UNRATED] (2010) BDRip-AVC

Релиз от HQ-ViDEO

Я плюю на ваши могилы I Spit on Your Grave UNRATED 2010 BDRip от HQ-ViDEO

Жанр: Ужасы, Триллер, Криминал
Год выпуска: 2010
Студия: название
Режиссер: Стивен Р. Монро /Steven R. Monroe/

В ролях: Сара Батлер /Sarah Butler/, Джефф Брэнсон /Jeff Branson/, Эндрю Ховард /Andrew Howard/, Дэниел Фрэнзиси /Daniel Franzese/, Родни Истман /Rodney Eastman/, Чэд Линдберг /Chad Lindberg/, Трейси Уолтер /Tracey Walter/, Молли Миллиган /Mollie Milligan/, Саксон Шарбино /Saxon Sharbino/, Эмбер Даун Лэндрум /Amber Dawn Landrum/

Описание: Молодая писательница Дженнифер снимает домик в глухом лесу, чтобы в уединении написать роман. Но издатель не дождется нового бестселлера Четверо местных отморозков жестоко насилуют девушку и обрекают ее на мучительную смерть. Но Дженнифер сумела выжить и теперь ее единственная цель — месть. И месть эта будет столь ужасной, что бывшие насильники проклянут тот день, когда встретили ее впервые…

Код:


*********** I Spit on Your Grave (2010) ***********

Release Date: 05.10.2011

Release Info:
File Name .....: Ya.Plyuyu.Na.Vashi.Mogily.2010.Unrated.DUAL.BDRip-AVC.AC3.-HQ-ViDEO.mkv

Author.........: Vaippp

Runtime .......: 01:48:13 min
Video Format ..: MKV, H.264 codec
Video Bitrate .: 1 990 kbps
Bits per Pixel : 0.18 bit/pixel
Resolution ....: 1016 x 432
Aspect Ratio ..: 2.35:1
Framerate .....: 23.976 fps

Audio First....: Russian AC3 Dolby Digital; 448.00 kbps; 5.1 Ch; 48 kHz
Audio Second...: English AC3 Dolby Digital; 448.00 kbps; 5.1 Ch; 48 kHz

Subtitle.......: Russian; English

File Size .....: 2235,95 Mb (1/2 DVDR)

Source.........: Blu-Ray

IMDb:

Rating.........: 6.3/10
Link...........: http://www.imdb.com/title/tt1242432/

kinopoisk.ru:

Rating.........: 6.114/10
Link...........: http://www.kinopoisk.ru/level/1/film/417892/

Log

Код:

raw [info]: 1016x432p 1:1 @ 24000/1001 fps (cfr)
x264 [info]: using SAR=1/1
x264 [info]: using cpu capabilities: MMX2 SSE2Fast SSSE3 FastShuffle SSE4.2
x264 [info]: profile High, level 4.1

x264 [info]: frame I:1398 Avg QP:15.81 size: 53190
x264 [info]: frame P:39416 Avg QP:19.09 size: 16666
x264 [info]: frame B:114898 Avg QP:19.18 size: 7696
x264 [info]: consecutive B-frames: 5.4% 4.3% 10.3% 21.9% 18.3% 27.0% 5.6% 2.5% 2.0% 1.6% 1.1%
x264 [info]: mb I I16..4: 7.5% 74.3% 18.2%
x264 [info]: mb P I16..4: 1.3% 11.8% 1.7% P16..4: 34.0% 24.3% 11.4% 0.0% 0.0% skip:15.5%
x264 [info]: mb B I16..4: 0.1% 1.0% 0.2% B16..8: 38.7% 15.1% 4.0% direct: 7.3% skip:33.6% L0:42.2% L1:43.6% BI:14.3%
x264 [info]: 8×8 transform intra:78.1% inter:62.4%
x264 [info]: direct mvs spatial:98.6% temporal:1.4%
x264 [info]: coded y,uvDC,uvAC intra: 84.7% 70.4% 38.0% inter: 27.5% 12.3% 0.9%
x264 [info]: i16 v,h,dc,p: 42% 11% 8% 39%
x264 [info]: i8 v,h,dc,ddl,ddr,vr,hd,vl,hu: 15% 13% 7% 8% 11% 13% 11% 12% 11%
x264 [info]: i4 v,h,dc,ddl,ddr,vr,hd,vl,hu: 12% 11% 5% 8% 15% 15% 13% 11% 11%
x264 [info]: i8c dc,h,v,p: 38% 26% 22% 14%
x264 [info]: Weighted P-Frames: Y:3.0% UV:1.2%
x264 [info]: ref P L0: 49.1% 11.7% 15.1% 5.5% 4.4% 3.1% 2.7% 1.6% 1.5% 1.2% 1.1% 1.0% 0.9% 0.9% 0.2% 0.0%
x264 [info]: ref B L0: 73.5% 11.1% 5.1% 2.7% 1.9% 1.5% 1.2% 0.8% 0.7% 0.6% 0.5% 0.3% 0.2%
x264 [info]: ref B L1: 93.1% 6.9%
x264 [info]: kb/s:1990.02

MediaInfo

Код:

General
Unique ID : 249808851048350402430744225472917870442 (0xBBEF6F45EC6E891889D5EFBB0149176A)
Complete name : I:\Other\Ya.Plyuyu.Na.Vashi.Mogily.2010.Unrated.DUAL.BDRip-AVC.AC3.-HQ-ViDEO.mkv
Format : Matroska
Format version : Version 2
File size : 2.18 GiB
Duration : 1h 48mn
Overall bit rate : 2 888 Kbps
Movie name : Ya Plyuyu Na Vashi Mogily / 2010 / Unrated / Release by Vaippp / HQ-ViDEO
Encoded date : UTC 2011-10-05 04:49:53
Writing application : mkvmerge v4.9.1 (‘Ich will’) сборка от Jul 11 2011 23:53:15
Writing library : libebml v1.2.1 + libmatroska v1.1.1

Video
ID : 1
Format : AVC
Format/Info : Advanced Video Codec
Format profile : High@L4.1
Format settings, CABAC : Yes
Format settings, ReFrames : 14 frames
Codec ID : V_MPEG4/ISO/AVC
Duration : 1h 48mn
Bit rate : 1 990 Kbps
Width : 1 016 pixels
Height : 432 pixels
Display aspect ratio : 2.35:1
Frame rate : 23.976 fps
Color space : YUV
Chroma subsampling : 4:2:0
Bit depth : 8 bits
Scan type : Progressive
Bits/(Pixel*Frame) : 0.189
Stream size : 1.46 GiB (67%)
Title : BDRip 05/10/2011
Writing library : x264 core 118 r2085 8a62835
Encoding settings : cabac=1 / ref=14 / deblock=1:-2:-1 / analyse=0×3:0×113 / me=umh / subme=10 / psy=1 / psy_rd=1.00:0.05 / mixed_ref=1 / me_range=32 / chroma_me=1 / trellis=2 / 8x8dct=1 / cqm=0 / deadzone=21,11 / fast_pskip=0 / chroma_qp_offset=-2 / threads=12 / sliced_threads=0 / nr=0 / decimate=1 / interlaced=0 / bluray_compat=0 / constrained_intra=0 / bframes=10 / b_pyramid=2 / b_adapt=2 / b_bias=0 / direct=3 / weightb=1 / open_gop=0 / weightp=2 / keyint=250 / keyint_min=23 / scenecut=40 / intra_refresh=0 / rc_lookahead=40 / rc=2pass / mbtree=0 / bitrate=1990 / ratetol=1.0 / qcomp=0.65 / qpmin=0 / qpmax=69 / qpstep=4 / cplxblur=20.0 / qblur=0.5 / vbv_maxrate=40000 / vbv_bufsize=30000 / nal_hrd=none / ip_ratio=1.40 / pb_ratio=1.30 / aq=2:1.05 / zones=149933,155711,q=35
Language : English
Matrix coefficients : BT.709-5, BT.1361, IEC 61966-2-4 709, SMPTE RP177

Audio #1
ID : 2
Format : AC-3
Format/Info : Audio Coding 3
Mode extension : CM (complete main)
Codec ID : A_AC3
Duration : 1h 48mn
Bit rate mode : Constant
Bit rate : 448 Kbps
Channel(s) : 6 channels
Channel positions : Front: L C R, Side: L R, LFE
Sampling rate : 48.0 KHz
Bit depth : 16 bits
Compression mode : Lossy
Stream size : 347 MiB (16%)
Title : DUB
Language : Russian

Audio #2
ID : 3
Format : AC-3
Format/Info : Audio Coding 3
Mode extension : CM (complete main)
Codec ID : A_AC3
Duration : 1h 48mn
Bit rate mode : Constant
Bit rate : 448 Kbps
Channel(s) : 6 channels
Channel positions : Front: L C R, Side: L R, LFE
Sampling rate : 48.0 KHz
Bit depth : 16 bits
Compression mode : Lossy
Stream size : 347 MiB (16%)
Title : ORG
Language : English

Text #1
ID : 4
Format : UTF-8
Codec ID : S_TEXT/UTF8
Codec ID/Info : UTF-8 Plain Text
Language : Russian

Text #2
ID : 5
Format : UTF-8
Codec ID : S_TEXT/UTF8
Codec ID/Info : UTF-8 Plain Text
Language : English

Menu
00:00:00.000 : en:00:00:00.000
00:10:27.043 : en:00:10:27.043
00:17:46.023 : en:00:17:46.023
00:31:54.913 : en:00:31:54.913
00:38:27.972 : en:00:38:27.972
00:46:26.826 : en:00:46:26.826
00:57:22.397 : en:00:57:22.397
01:04:48.051 : en:01:04:48.051
01:13:18.644 : en:01:13:18.644
01:17:26.684 : en:01:17:26.684
01:30:25.003 : en:01:30:25.003
01:44:12.913 : en:01:44:12.913

Язык: Русский дублированный + Оригинальная дорожка (Английская)

Субтитры: Русские, Английские.
Субтитры: Русские (2 вида), Английские SDH (2 вида).

Скриншоты для оценки качества:

Сэмпл: http://multi-up.com/569363

Релиз:

Автор рипа: Vaippp

Извините, но комментарии закрыты.

Tags Comment Meta:
RSS Канал для комментариев