Автор Alien

Погребенный заживо / Buried (2010) BDRip-AVC от HQ-ViDEO

Погребенный заживо Buried 2010 BDRip от HQ-ViDEO

Погребенный заживо / Buried (2010) BDRip-AVC

Релиз от HQ-ViDEO

Погребенный заживо Buried 2010 BDRip от HQ-ViDEO

Жанр: Триллер, Драма, Детектив
Год выпуска: 2010
Студия: Versus Entertainment, Safran Company, The, Dark Trick Films
Режиссер: Родриго Кортес /Rodrigo Corts/

В ролях: Райан Рейнольдс /Ryan Reynolds/, Хосе Луис Гарсия Переc /Jos Luis Garca Prez/, Роберт Патерсон /Robert Paterson/, Стивен Тоболовски /Stephen Tobolowsky/, Саманта Мэтис /Samantha Mathis/, Ивана Миньо /Ivana Mio/, Уорнер Лафлин /Warner Loughlin/, Эрик Палладино /Erik Palladino/, Кали Роча /Kali Rocha/, Крис Мартин /Chris Martin/

Описание: Герой фильма Пол, находящийся в Ираке по контракту, во время засады теряет сознание и спустя время приходит в себя в странном тесном темном месте. Не трудно догадаться, что воспользовавшись зажигалкой, Пол обнаруживает себя похороненным в гробу. Ему предстоит пережить много страшных, психологически тяжелых, физически невозможных мгновений борьбы за собственную жизнь в попытках выбраться из неожиданной ловушки…

Код:


*********** Buried (2010) ***********

Release Date: 04.10.2011

Release Info:
File Name .....: Pogrebennyi.Zazhivo.2010.RUS.BDRip-AVC.AC3.-HQ-ViDEO.mkv

Author.........: Vaippp

Runtime .......: 01:35:27 min
Video Format ..: MKV, H.264 codec
Video Bitrate .: 1 734 kbps
Bits per Pixel : 0.16 bit/pixel
Resolution ....: 1016 x 432
Aspect Ratio ..: 2.35:1
Framerate .....: 23.976 fps

Audio First....: Russian AC3 Dolby Digital; 448.00 kbps; 5.1 Ch; 48 kHz

Subtitle.......: Russian; English

File Size .....: 1490,77 Mb (1/3 DVDR)

Source.........: Blu-Ray

IMDb:

Rating.........: 7.2/10
Link...........: http://www.imdb.com/title/tt1462758/

kinopoisk.ru:

Rating.........: 7.851/10
Link...........: http://www.kinopoisk.ru/level/1/film/470656/

Log

Код:

raw [info]: 1016x432p 1:1 @ 24000/1001 fps (cfr)
x264 [info]: using SAR=1/1
x264 [info]: using cpu capabilities: MMX2 SSE2Fast SSSE3 FastShuffle SSE4.2
x264 [info]: profile High, level 4.1

x264 [info]: frame I:654 Avg QP:17.69 size: 27649
x264 [info]: frame P:33577 Avg QP:18.29 size: 11105
x264 [info]: frame B:103096 Avg QP:21.38 size: 8247
x264 [info]: consecutive B-frames: 8.8% 3.0% 5.9% 10.5% 10.9% 22.2% 8.0% 6.9% 4.8% 3.7% 3.4% 3.5% 2.6% 2.9% 1.2% 0.6% 0.8%
x264 [info]: mb I I16..4: 54.5% 37.2% 8.2%
x264 [info]: mb P I16..4: 4.4% 6.8% 0.5% P16..4: 15.3% 7.9% 5.0% 0.0% 0.0% skip:60.1%
x264 [info]: mb B I16..4: 0.1% 1.9% 0.1% B16..8: 20.8% 6.6% 2.3% direct: 4.1% skip:64.2% L0:49.2% L1:42.3% BI: 8.5%
x264 [info]: 8×8 transform intra:66.4% inter:59.7%
x264 [info]: direct mvs spatial:96.0% temporal:4.0%
x264 [info]: coded y,uvDC,uvAC intra: 65.6% 56.5% 32.0% inter: 16.5% 11.0% 3.3%
x264 [info]: i16 v,h,dc,p: 86% 6% 4% 4%
x264 [info]: i8 v,h,dc,ddl,ddr,vr,hd,vl,hu: 7% 9% 16% 9% 13% 11% 13% 10% 13%
x264 [info]: i4 v,h,dc,ddl,ddr,vr,hd,vl,hu: 7% 10% 12% 9% 14% 11% 13% 10% 14%
x264 [info]: i8c dc,h,v,p: 50% 18% 13% 19%
x264 [info]: Weighted P-Frames: Y:11.8% UV:8.9%
x264 [info]: ref P L0: 41.9% 6.4% 16.0% 7.8% 5.9% 4.7% 4.0% 2.5% 2.2% 1.9% 1.7% 1.6% 1.5% 1.4% 0.5% 0.0%
x264 [info]: ref B L0: 57.2% 14.4% 8.4% 4.7% 3.5% 3.0% 2.4% 1.6% 1.4% 1.3% 1.1% 0.7% 0.3%
x264 [info]: ref B L1: 87.8% 12.2%
x264 [info]: kb/s:1733.52

MediaInfo

Код:

General
Unique ID : 179298233695989186640991343466522039245 (0x86E3956F01D43E1DB06D8BF0B3B353CD)
Complete name : I:\Other\Pogrebennyi.Zazhivo.2010.RUS.BDRip-AVC.AC3.-HQ-ViDEO.mkv
Format : Matroska
Format version : Version 2
File size : 1.46 GiB
Duration : 1h 35mn
Overall bit rate : 2 183 Kbps
Movie name : Pogrebennyi Zazhivo / 2010 / Release by Vaippp / HQ-ViDEO
Encoded date : UTC 2011-10-04 06:06:03
Writing application : mkvmerge v4.9.1 (‘Ich will’) сборка от Jul 11 2011 23:53:15
Writing library : libebml v1.2.1 + libmatroska v1.1.1

Video
ID : 1
Format : AVC
Format/Info : Advanced Video Codec
Format profile : High@L4.1
Format settings, CABAC : Yes
Format settings, ReFrames : 14 frames
Codec ID : V_MPEG4/ISO/AVC
Duration : 1h 35mn
Bit rate : 1 734 Kbps
Width : 1 016 pixels
Height : 432 pixels
Display aspect ratio : 2.35:1
Frame rate : 23.976 fps
Color space : YUV
Chroma subsampling : 4:2:0
Bit depth : 8 bits
Scan type : Progressive
Bits/(Pixel*Frame) : 0.165
Stream size : 1.13 GiB (77%)
Title : BDRip 04/10/2011
Writing library : x264 core 118 r2085 8a62835
Encoding settings : cabac=1 / ref=14 / deblock=1:-3:-2 / analyse=0×3:0×113 / me=umh / subme=10 / psy=1 / psy_rd=1.00:0.05 / mixed_ref=1 / me_range=48 / chroma_me=1 / trellis=2 / 8x8dct=1 / cqm=0 / deadzone=21,11 / fast_pskip=0 / chroma_qp_offset=-3 / threads=12 / sliced_threads=0 / nr=0 / decimate=0 / interlaced=0 / bluray_compat=0 / constrained_intra=0 / bframes=16 / b_pyramid=2 / b_adapt=2 / b_bias=0 / direct=3 / weightb=1 / open_gop=0 / weightp=2 / keyint=250 / keyint_min=23 / scenecut=40 / intra_refresh=0 / rc_lookahead=40 / rc=2pass / mbtree=0 / bitrate=1734 / ratetol=1.0 / qcomp=0.70 / qpmin=0 / qpmax=69 / qpstep=4 / cplxblur=20.0 / qblur=0.5 / vbv_maxrate=40000 / vbv_bufsize=30000 / nal_hrd=none / ip_ratio=1.40 / pb_ratio=1.30 / aq=2:0.90 / zones=131217,137326,q=35
Language : English
Matrix coefficients : BT.709-5, BT.1361, IEC 61966-2-4 709, SMPTE RP177

Audio
ID : 2
Format : AC-3
Format/Info : Audio Coding 3
Mode extension : CM (complete main)
Codec ID : A_AC3
Duration : 1h 35mn
Bit rate mode : Constant
Bit rate : 448 Kbps
Channel(s) : 6 channels
Channel positions : Front: L C R, Side: L R, LFE
Sampling rate : 48.0 KHz
Bit depth : 16 bits
Compression mode : Lossy
Stream size : 306 MiB (21%)
Title : DUB
Language : Russian

Text #1
ID : 3
Format : UTF-8
Codec ID : S_TEXT/UTF8
Codec ID/Info : UTF-8 Plain Text
Language : Russian

Text #2
ID : 4
Format : UTF-8
Codec ID : S_TEXT/UTF8
Codec ID/Info : UTF-8 Plain Text
Language : English

Menu
00:00:00.000 : en:00:00:00.000
00:04:25.265 : en:00:04:25.265
00:09:29.569 : en:00:09:29.569
00:15:47.071 : en:00:15:47.071
00:20:42.867 : en:00:20:42.867
00:24:55.119 : en:00:24:55.119
00:33:18.163 : en:00:33:18.163
00:39:27.156 : en:00:39:27.156
00:46:16.399 : en:00:46:16.399
00:49:29.592 : en:00:49:29.592
00:55:43.340 : en:00:55:43.340
01:03:48.074 : en:01:03:48.074
01:09:30.166 : en:01:09:30.166
01:15:34.029 : en:01:15:34.029
01:23:00.475 : en:01:23:00.475
01:27:18.483 : en:01:27:18.483

Язык: Русский дублированный + Оригинальная дорожка (Английская/Отдельно)

Субтитры: Русские, Английские.

Скриншоты для оценки качества:

Сэмпл: http://multi-up.com/568825

Релиз:

Автор рипа: Vaippp

Извините, но комментарии закрыты.

Tags Comment Meta:
RSS Канал для комментариев