Звездные войны - Star Wars The Complete Saga BDRip 720 от HQ-ViDEO

Звездные войны: Эпизод 6 — Возвращение Джедая / Star Wars: Episode VI — Return of the Jedi (1983) BDRip [720]

Релиз от HQ-ViDEO

Звездные войны - Star Wars The Complete Saga BDRip 720 от HQ-ViDEO

Жанр: фантастика, боевик, приключения
Год: 1983
Студия: Lucasfilm
Режиссер: Ричард Маркуэнд/Richard Marquand

В ролях: Марк Хэмилл/Mark Hamill, Харрисон Форд /Harrison Ford/, Кэрри Фишер/Carrie Fisher, Билли Ди Уильямс/Billy Dee Williams, Иэн МакДайармид/Ian McDiarmid, Алек Гиннесс/Alec Guinness, Энтони Дэниелс/Anthony Daniels, Кенни Бейкер/Kenny Baker, Дэвид Праус/David Prowse

Описание: В заключительном шестом эпизоде «Звездных войн» Дарт Вейдер создает вторую «Звезду Смерти». Он объединяет все силы зла, чтобы с помощью этого смертоносного оружия нанести последний сокрушительный удар по повстанцам и их союзникам.

Люк Скайуокер вместе с принцессой Лейей и верными дроидами R2D2 и C-3PO отправляется спасать своего друга Хана Соло, который попал в плен к отвратительному Джаббе Хатту — могущественному повелителю преступников.
Повстанцы высаживаются на планету Эндор, чтобы оттуда вместе с Люком и его отрядом предпринять последнюю атаку на Имперский флот, атаку, от которой зависит судьба Галактики. В этом эпизоде Люк Скайуокер и Дарт Вейдер встречаются в последний раз… ибо из поединка между отцом и сыном живым выйдет только один…

Код:


*********** Star Wars: Episode VI - Return of the Jedi (1983) ***********

Release Date: 27.09.2011

Release Info:

File Name .....: Zvezdnye.Voiny.E.06.Vozvraschenie.Dzhedaya.1983.RUS.BDRip.720p.h264.AC3.-HQ-ViDEO.mkv

Runtime .......: 02:14:47
Video Format ..: MKV, H.264
Video Bitrate .: 5 474 Kbps
Bits per Pixel : 0.321
Resolution ....: 1 280x544
Aspect Ratio ..: 2.35:1
Framerate .....: 23.976 fps

Audio First....: Russian AC3 Dolby Digital; 448.00 kbps; 5.1 Ch; 48 kHz
Subtitle.......: Russian, Russian (forced), English, English (forced)

File Size .....: 5.58 GB

Source.........: Blu Ray

IMDb:

Rating.........: 8.3/10
Link...........: http://www.imdb.com/title/tt0086190/

КиноПоиск.Ru:

Rating.........: 8.0/10
Link...........: http://www.kinopoisk.ru/level/1/film/447/


MI

General
Complete name : Zvezdnye.Voiny.E.06.Vozvraschenie.Dzhedaya.1983.RUS.BDRip.720p.h264.AC3.-HQ-ViDEO.mkv
Format : Matroska
File size : 5.58 GiB
Duration : 2h 14mn
Overall bit rate : 5 923 Kbps
Movie name : Star Wars: Episode VI — Return of the Jedi (1983)
Encoded date : UTC 2011-09-27 08:16:33
Writing application : mkvmerge v3.3.0 (‘Language’) built on Mar 24 2010 14:59:24
Writing library : libebml v0.8.0 + libmatroska v0.9.0

Video
ID : 1
Format : AVC
Format/Info : Advanced Video Codec
Format profile : High@L4.1
Format settings, CABAC : Yes
Format settings, ReFrames : 6 frames
Codec ID : V_MPEG4/ISO/AVC
Duration : 2h 14mn
Bit rate mode : Variable
Bit rate : 5 474 Kbps
Width : 1 280 pixels
Height : 544 pixels
Display aspect ratio : 2.35:1
Frame rate : 23.976 fps
Color space : YUV
Chroma subsampling : 4:2:0
Bit depth : 8 bits
Scan type : Progressive
Bits/(Pixel*Frame) : 0.321
Stream size : 5.04 GiB (90%)
Title : Encoded by GYN

Audio
ID : 2
Format : AC-3
Format/Info : Audio Coding 3
Mode extension : CM (complete main)
Codec ID : A_AC3
Duration : 2h 14mn
Bit rate mode : Constant
Bit rate : 448 Kbps
Channel(s) : 6 channels
Channel positions : Front: L C R, Side: L R, LFE
Sampling rate : 48.0 KHz
Bit depth : 16 bits
Compression mode : Lossy
Stream size : 432 MiB (8%)
Title : DUB
Language : Russian

Text #1
ID : 3
Format : UTF-8
Codec ID : S_TEXT/UTF8
Codec ID/Info : UTF-8 Plain Text
Title : Forced
Language : Russian

Text #2
ID : 4
Format : UTF-8
Codec ID : S_TEXT/UTF8
Codec ID/Info : UTF-8 Plain Text
Language : Russian

Text #3
ID : 5
Format : UTF-8
Codec ID : S_TEXT/UTF8
Codec ID/Info : UTF-8 Plain Text
Title : Forced
Language : English

Text #4
ID : 6
Format : UTF-8
Codec ID : S_TEXT/UTF8
Codec ID/Info : UTF-8 Plain Text
Language : English

Язык: Русский дублированный + Оригинальная дорожка (448/отдельно)

Субтитры: Русские (полные, форсированные), Английские (полные, форсированные).

Скриншоты для оценки качества (превью — увеличение по клику):

Релиз:
Автор рипа: GYN ©

Извините, но комментарии закрыты.

Tags Comment Meta:
RSS Канал для комментариев