Автор Alien

Очень плохая училка / Bad Teacher [UNRATED] (2011) BDRip-AVC от HQ-ViDEO

Очень плохая училка Bad Teacher UNRATED 2011 BDRip-AVC от HQ-ViDEO

Очень плохая училка / Bad Teacher [UNRATED] (2011) BDRip-AVC

Релиз от HQ-ViDEO

Очень плохая училка Bad Teacher UNRATED 2011 BDRip-AVC от HQ-ViDEO

Жанр: Комедия
Год выпуска: 2011
Студия: Columbia Pictures, Mosaic Media Group
Режиссер: Джейк Кэздан /Jake Kasdan/

В ролях: Кэмерон Диаз /Cameron Diaz/, Джастин Тимберлэйк /Justin Timberlake/, Джейсон Сигел /Jason Segel/, Люси Панч /Lucy Punch/, Филлис Смит /Phyllis Smith/, Джон Майкл Хиггинс /John Michael Higgins/, Дэйв Аллен /Dave Allen/, Джиллиан Арменанте /Jillian Armenante/, Мэттью Дж. Эванс /Matthew J. Evans/, Кейтлин Девер /Kaitlyn Dever/

Описание: Учительница средних классов живет гламурной жизнью светской львицы, ходит на работу как на вечеринку и мечтает об увеличении объема собственного бюста. Однако после внезапного разрыва с богатым бойфрендом ее образ жизни резко меняется, хотя сама она это осознает не сразу. Но когда в их школу приходит новый преподаватель, она совершенно теряет голову и начинает охоту за…; деньгами

Код:


*********** Bad Teacher (2011) ***********

Release Date: 30.09.2011

Release Info:
File Name .....: Ochen.Plohaya.Uchilka.2011.Unrated.DUAL.BDRip-AVC.AC3.-HQ-ViDEO.mkv

Author.........: Vaippp

Runtime .......: 01:37:37 min
Video Format ..: MKV, H.264 codec
Video Bitrate .: 2 432 kbps
Bits per Pixel : 0.14 bit/pixel
Resolution ....: 1152 x 624
Aspect Ratio ..: 1.85:1
Framerate .....: 23.976 fps

Audio First....: Russian AC3 Dolby Digital; 384.00 kbps; 5.1 Ch; 48 kHz
Audio Second...: English AC3 Dolby Digital; 384.00 kbps; 5.1 Ch; 48 kHz

Subtitle.......: 2xRussian; Ukrainian, English

File Size .....: 2234,74 Mb (1/2 DVDR)

Source.........: Blu-Ray CEE CHD

IMDb:

Rating.........: 5.8/10
Link...........: http://www.imdb.com/title/tt1284575/

kinopoisk.ru:

Rating.........: 6.407/10
Link...........: http://www.kinopoisk.ru/level/1/film/465673/

Log

Код:

raw [info]: 1152x624p 1:1 @ 24000/1001 fps (cfr)
x264 [info]: using SAR=1/1
x264 [info]: using cpu capabilities: MMX2 SSE2Fast SSSE3 FastShuffle SSE4.2
x264 [info]: profile High, level 4.1

x264 [info]: frame I:1620 Avg QP:19.61 size: 80265
x264 [info]: frame P:26489 Avg QP:21.70 size: 21790
x264 [info]: frame B:112339 Avg QP:22.56 size: 9542
x264 [info]: consecutive B-frames: 1.7% 0.7% 4.0% 12.0% 15.7% 53.6% 6.8% 1.9% 1.3% 1.2% 0.5% 0.4% 0.3%
x264 [info]: mb I I16..4: 8.8% 76.1% 15.1%
x264 [info]: mb P I16..4: 0.9% 5.2% 0.9% P16..4: 45.0% 23.9% 15.0% 0.0% 0.0% skip: 9.1%
x264 [info]: mb B I16..4: 0.0% 0.4% 0.1% B16..8: 43.0% 9.5% 2.6% direct: 4.3% skip:40.3% L0:45.0% L1:47.4% BI: 7.6%
x264 [info]: 8×8 transform intra:75.5% inter:61.0%
x264 [info]: direct mvs spatial:98.9% temporal:1.1%
x264 [info]: coded y,uvDC,uvAC intra: 86.5% 79.7% 53.6% inter: 20.7% 14.2% 1.8%
x264 [info]: i16 v,h,dc,p: 40% 17% 9% 35%
x264 [info]: i8 v,h,dc,ddl,ddr,vr,hd,vl,hu: 9% 8% 5% 10% 16% 15% 14% 12% 11%
x264 [info]: i4 v,h,dc,ddl,ddr,vr,hd,vl,hu: 8% 7% 2% 10% 17% 16% 14% 12% 12%
x264 [info]: i8c dc,h,v,p: 38% 23% 20% 19%
x264 [info]: Weighted P-Frames: Y:1.7% UV:0.6%
x264 [info]: ref P L0: 44.9% 10.8% 19.2% 6.3% 5.8% 3.8% 3.4% 1.6% 1.6% 1.2% 1.3% 0.1% 0.0%
x264 [info]: ref B L0: 67.1% 13.6% 7.2% 3.8% 2.7% 2.2% 1.7% 1.0% 0.5% 0.2%
x264 [info]: ref B L1: 90.1% 9.9%
x264 [info]: kb/s:2429.85

MediaInfo

Код:

General
Unique ID : 200727641962941463439183166831805781326 (0x9702BCD577DEBDFE864403FDE546D54E)
Complete name : I:\Other\Ochen.Plohaya.Uchilka.2011.Unrated.DUAL.BDRip-AVC.AC3.-HQ-ViDEO.mkv
Format : Matroska
Format version : Version 2
File size : 2.18 GiB
Duration : 1h 37mn
Overall bit rate : 3 200 Kbps
Movie name : Ochen Plohaya Uchilka / 2011 / Unrated / Release by Vaippp / HQ-ViDEO
Encoded date : UTC 2011-09-30 14:00:32
Writing application : mkvmerge v4.9.1 (‘Ich will’) сборка от Jul 11 2011 23:53:15
Writing library : libebml v1.2.1 + libmatroska v1.1.1

Video
ID : 1
Format : AVC
Format/Info : Advanced Video Codec
Format profile : High@L4.1
Format settings, CABAC : Yes
Format settings, ReFrames : 11 frames
Codec ID : V_MPEG4/ISO/AVC
Duration : 1h 37mn
Bit rate : 2 432 Kbps
Width : 1 152 pixels
Height : 624 pixels
Display aspect ratio : 16:9
Frame rate : 23.976 fps
Color space : YUV
Chroma subsampling : 4:2:0
Bit depth : 8 bits
Scan type : Progressive
Bits/(Pixel*Frame) : 0.141
Stream size : 1.62 GiB (74%)
Title : BDRip 30/09/211
Writing library : x264 core 118 r2085 8a62835
Encoding settings : cabac=1 / ref=11 / deblock=1:-2:-2 / analyse=0×3:0×113 / me=umh / subme=10 / psy=1 / psy_rd=1.00:0.00 / mixed_ref=1 / me_range=32 / chroma_me=1 / trellis=2 / 8x8dct=1 / cqm=0 / deadzone=21,11 / fast_pskip=0 / chroma_qp_offset=-1 / threads=12 / sliced_threads=0 / nr=0 / decimate=1 / interlaced=0 / bluray_compat=0 / constrained_intra=0 / bframes=12 / b_pyramid=2 / b_adapt=2 / b_bias=0 / direct=3 / weightb=1 / open_gop=0 / weightp=2 / keyint=250 / keyint_min=23 / scenecut=40 / intra_refresh=0 / rc_lookahead=40 / rc=2pass / mbtree=0 / bitrate=2432 / ratetol=1.0 / qcomp=0.60 / qpmin=0 / qpmax=69 / qpstep=4 / cplxblur=20.0 / qblur=0.5 / vbv_maxrate=40000 / vbv_bufsize=30000 / nal_hrd=none / ip_ratio=1.40 / pb_ratio=1.30 / aq=2:1.05
Language : English
Matrix coefficients : BT.709-5, BT.1361, IEC 61966-2-4 709, SMPTE RP177

Audio #1
ID : 2
Format : AC-3
Format/Info : Audio Coding 3
Mode extension : CM (complete main)
Codec ID : A_AC3
Duration : 1h 37mn
Bit rate mode : Constant
Bit rate : 384 Kbps
Channel(s) : 6 channels
Channel positions : Front: L C R, Side: L R, LFE
Sampling rate : 48.0 KHz
Bit depth : 16 bits
Compression mode : Lossy
Stream size : 268 MiB (12%)
Title : DUB | BD-CEE
Language : Russian

Audio #2
ID : 3
Format : AC-3
Format/Info : Audio Coding 3
Mode extension : CM (complete main)
Codec ID : A_AC3
Duration : 1h 37mn
Bit rate mode : Constant
Bit rate : 384 Kbps
Channel(s) : 6 channels
Channel positions : Front: L C R, Side: L R, LFE
Sampling rate : 48.0 KHz
Bit depth : 16 bits
Compression mode : Lossy
Stream size : 268 MiB (12%)
Title : Original
Language : English

Text #1
ID : 4
Format : UTF-8
Codec ID : S_TEXT/UTF8
Codec ID/Info : UTF-8 Plain Text
Title : Forced
Language : Russian

Text #2
ID : 5
Format : UTF-8
Codec ID : S_TEXT/UTF8
Codec ID/Info : UTF-8 Plain Text
Title : Full
Language : Russian

Text #3
ID : 6
Format : UTF-8
Codec ID : S_TEXT/UTF8
Codec ID/Info : UTF-8 Plain Text
Language : Ukrainian

Text #4
ID : 7
Format : UTF-8
Codec ID : S_TEXT/UTF8
Codec ID/Info : UTF-8 Plain Text
Language : English

Menu
00:00:00.000 : en:00:00:00.000
00:06:32.767 : en:00:06:32.767
00:11:46.915 : en:00:11:46.915
00:19:41.972 : en:00:19:41.972
00:24:44.900 : en:00:24:44.900
00:33:07.235 : en:00:33:07.235
00:41:08.841 : en:00:41:08.841
00:45:41.030 : en:00:45:41.030
00:49:59.413 : en:00:49:59.413
00:52:48.957 : en:00:52:48.957
00:57:37.204 : en:00:57:37.204
01:03:36.938 : en:01:03:36.938
01:11:14.187 : en:01:11:14.187
01:15:57.928 : en:01:15:57.928
01:22:34.199 : en:01:22:34.199
01:28:46.530 : en:01:28:46.530

Язык: Русский дублированный + Оригинальная дорожка (Английская)

Субтитры: Русские (полные, форсированные на места без перевода, надписи), Укринские (полные, форсированные на места без перевода, надписи), Английские.

Скриншоты для оценки качества:

Сэмпл: http://multi-up.com/566530

Релиз:

Автор рипа: Vaippp

Извините, но комментарии закрыты.

Tags Comment Meta:
RSS Канал для комментариев