Звездные войны - Star Wars The Complete Saga BDRip 720 от HQ-ViDEO

Звездные войны: Эпизод 4 — Новая надежда / Star Wars: Episode IV — A New Hope (1977) BDRip [720]

Релиз от HQ-ViDEO

Звездные войны - Star Wars The Complete Saga BDRip 720 от HQ-ViDEO

Жанр: фантастика, боевик, приключения
Год: 1977
Студия: Lucasfilm, Twentieth Century Fox Film Corporation
Режиссер: Джордж Лукас /George Lucas/

В ролях: Марк Хэмилл/Mark Hamill, Харрисон Форд /Harrison Ford/, Кэрри Фишер/Carrie Fisher, Питер Кашинг/Peter Cushing, Алек Гиннесс/Alec Guinness, Энтони Дэниелс/Anthony Daniels, Кенни Бейкер/Kenny Baker

Описание: Татуин. Планета-пустыня. Уже постаревший рыцарь Джедай Оби Ван Кеноби спасает молодого Люка Скайуокера, когда тот пытается отыскать пропавшего дроида. С этого момента Люк осознает свое истинное назначение: он один из рыцарей Джедай. В то время как гражданская война охватила галактику, а войска повстанцев ведут бои против сил злого Императора, к Люку и Оби Вану присоединяется отчаянный пилот-наемник Хан Соло, и в сопровождении двух дроидов, R2D2 и C-3PO, этот необычный отряд отправляется на поиски предводителя повстанцев — принцессы Леи. Героям предстоит отчаянная схватка с устрашающим Дартом Вейдером — правой рукой Императора и его секретным оружием — «Звездой Смерти».

Код:


*********** Star Wars: Episode IV - A New Hope (1977) ***********

Release Date: 27.09.2011

Release Info:

File Name .....: Zvezdnye.Voiny.E.04.Novaya.Nadezhda.1977.RUS.BDRip.720p.h264.AC3.-HQ-ViDEO.mkv

Runtime .......: 02:04:44
Video Format ..: MKV, H.264
Video Bitrate .: 5 951 Kbps
Bits per Pixel : 0.349
Resolution ....: 1 280x544
Aspect Ratio ..: 2.35:1
Framerate .....: 23.976 fps

Audio First....: Russian AC3 Dolby Digital; 448.00 kbps; 5.1 Ch; 48 kHz
Subtitle.......: Russian, Russian (forced), English, English (forced)

File Size .....: 5.58 GB

Source.........: Blu Ray

IMDb:

Rating.........: 8.8/10
Link...........: http://www.imdb.com/title/tt0076759/

КиноПоиск.Ru:

Rating.........: 7.9/10
Link...........: http://www.kinopoisk.ru/level/1/film/333/


MI

General
Complete name : Zvezdnye.Voiny.E.04.Novaya.Nadezhda.1977.RUS.BDRip.720p.h264.AC3.-HQ-ViDEO.mkv
Format : Matroska
File size : 5.58 GiB
Duration : 2h 4mn
Overall bit rate : 6 401 Kbps
Movie name : Star Wars (1977)
Encoded date : UTC 2011-09-27 05:53:03
Writing application : mkvmerge v3.3.0 (‘Language’) built on Mar 24 2010 14:59:24
Writing library : libebml v0.8.0 + libmatroska v0.9.0

Video
ID : 1
Format : AVC
Format/Info : Advanced Video Codec
Format profile : High@L4.1
Format settings, CABAC : Yes
Format settings, ReFrames : 6 frames
Codec ID : V_MPEG4/ISO/AVC
Duration : 2h 4mn
Bit rate mode : Variable
Bit rate : 5 951 Kbps
Width : 1 280 pixels
Height : 544 pixels
Display aspect ratio : 2.35:1
Frame rate : 23.976 fps
Color space : YUV
Chroma subsampling : 4:2:0
Bit depth : 8 bits
Scan type : Progressive
Bits/(Pixel*Frame) : 0.349
Stream size : 5.08 GiB (91%)
Title : Encoded by GYN

Audio
ID : 2
Format : AC-3
Format/Info : Audio Coding 3
Mode extension : CM (complete main)
Codec ID : A_AC3
Duration : 2h 4mn
Bit rate mode : Constant
Bit rate : 448 Kbps
Channel(s) : 6 channels
Channel positions : Front: L C R, Side: L R, LFE
Sampling rate : 48.0 KHz
Bit depth : 16 bits
Compression mode : Lossy
Stream size : 400 MiB (7%)
Title : DUB
Language : Russian

Text #1
ID : 3
Format : UTF-8
Codec ID : S_TEXT/UTF8
Codec ID/Info : UTF-8 Plain Text
Title : Forced
Language : Russian

Text #2
ID : 4
Format : UTF-8
Codec ID : S_TEXT/UTF8
Codec ID/Info : UTF-8 Plain Text
Language : Russian

Text #3
ID : 5
Format : UTF-8
Codec ID : S_TEXT/UTF8
Codec ID/Info : UTF-8 Plain Text
Title : Forced
Language : English

Text #4
ID : 6
Format : UTF-8
Codec ID : S_TEXT/UTF8
Codec ID/Info : UTF-8 Plain Text
Language : English

Язык: Русский дублированный + Оригинальная дорожка (448/отдельно)

Субтитры: Русские (полные, форсированные), Английские (полные, форсированные).

Скриншоты для оценки качества (превью — увеличение по клику):

Релиз:
Автор рипа: GYN ©

Извините, но комментарии закрыты.

Tags Comment Meta:
RSS Канал для комментариев