Звездные войны - Star Wars The Complete Saga BDRip 720 от HQ-ViDEO

Звездные войны: Эпизод 2 — Атака клонов / Star Wars: Episode II — Attack of the Clones (2002) BDRip [720]

Релиз от HQ-ViDEO

Звездные войны - Star Wars The Complete Saga BDRip 720 от HQ-ViDEO

Жанр: фантастика, боевик, приключения
Год: 2002
Студия: Lucasfilm
Режиссер: Джордж Лукас /George Lucas/

В ролях: Юэн МакГрегор/Ewan McGregor, Натали Портман /Natalie Portman/, Хейден Кристенсен/Hayden Christensen, Кристофер Ли/Christopher Lee, Сэмюэл Л. Джексон /Samuel L. Jackson/, Иэн МакДайармид/Ian McDiarmid, Пернилла Аугуст/Pernilla August

Описание: Действие разворачивается через 10 лет после событий, описанных в первом эпизоде знаменитой саги. Республика все глубже погружается в пучину противоречий и хаоса. Движение сепаратистов, представленное сотнями планет и могущественным альянсом корпораций, грозит стать новой угрозой для Галактики, с которой не смогут справиться даже джедаи.

Назревающий конфликт, заранее спланированный могущественными, но пока еще не разоблаченными силами, ведет к началу Клонических войн и к закату республики. Чтобы противостоять угрозе вселенских масштабов, Верховный канцлер Палпатин добивается консолидации власти в республике в своих руках и отдает приказ о создании республиканской армии для поддержки малочисленной группы джедаев в их борьбе с превосходящим противником.

Код:


*********** Star Wars: Episode II - Attack of the Clones (2002) ***********

Release Date: 25.09.2011

Release Info:

File Name .....: Zvezdnye.Voiny.E.02.Ataka.Klonov.2002.RUS.BDRip.720p.h264.AC3.-HQ-ViDEO.mkv

Runtime .......: 02:22:27
Video Format ..: MKV, H.264
Video Bitrate .: 5 155 Kbps
Bits per Pixel : 0.302
Resolution ....: 1 280x544
Aspect Ratio ..: 2.35:1
Framerate .....: 23.976 fps

Audio First....: Russian AC3 Dolby Digital; 448.00 kbps; 5.1 Ch; 48 kHz
Subtitle.......: Russian, Russian (forced), English, English (forced)

File Size .....: 5.58 GB

Source.........: Blu Ray

IMDb:

Rating.........: 6.8/10
Link...........: http://www.imdb.com/title/tt0121765/

КиноПоиск.Ru:

Rating.........: 7.7/10
Link...........: http://www.kinopoisk.ru/level/1/film/844/


MI

General
Complete name : Zvezdnye.Voiny.E.02.Ataka.Klonov.2002.RUS.BDRip.720p.h264.AC3.-HQ-ViDEO.mkv
Format : Matroska
File size : 5.58 GiB
Duration : 2h 22mn
Overall bit rate : 5 605 Kbps
Movie name : Star Wars: Episode II — Attack of the Clones (2002)
Encoded date : UTC 2011-09-25 08:45:34
Writing application : mkvmerge v3.3.0 (‘Language’) built on Mar 24 2010 14:59:24
Writing library : libebml v0.8.0 + libmatroska v0.9.0

Video
ID : 1
Format : AVC
Format/Info : Advanced Video Codec
Format profile : High@L4.1
Format settings, CABAC : Yes
Format settings, ReFrames : 6 frames
Codec ID : V_MPEG4/ISO/AVC
Duration : 2h 22mn
Bit rate mode : Variable
Bit rate : 5 155 Kbps
Width : 1 280 pixels
Height : 544 pixels
Display aspect ratio : 2.35:1
Frame rate : 23.976 fps
Color space : YUV
Chroma subsampling : 4:2:0
Bit depth : 8 bits
Scan type : Progressive
Bits/(Pixel*Frame) : 0.302
Stream size : 5.02 GiB (90%)
Title : Encoded by GYN

Audio
ID : 2
Format : AC-3
Format/Info : Audio Coding 3
Mode extension : CM (complete main)
Codec ID : A_AC3
Duration : 2h 22mn
Bit rate mode : Constant
Bit rate : 448 Kbps
Channel(s) : 6 channels
Channel positions : Front: L C R, Side: L R, LFE
Sampling rate : 48.0 KHz
Bit depth : 16 bits
Compression mode : Lossy
Stream size : 457 MiB (8%)
Title : DUB
Language : Russian

Text #1
ID : 3
Format : UTF-8
Codec ID : S_TEXT/UTF8
Codec ID/Info : UTF-8 Plain Text
Title : Forced
Language : Russian

Text #2
ID : 4
Format : UTF-8
Codec ID : S_TEXT/UTF8
Codec ID/Info : UTF-8 Plain Text
Language : Russian

Text #3
ID : 5
Format : UTF-8
Codec ID : S_TEXT/UTF8
Codec ID/Info : UTF-8 Plain Text
Title : Forced
Language : English

Text #4
ID : 6
Format : UTF-8
Codec ID : S_TEXT/UTF8
Codec ID/Info : UTF-8 Plain Text
Language : English

Menu
00:00:00.000 : en:Chapter 00
00:00:23.440 : en:Chapter 01
00:01:50.527 : en:Chapter 02
00:04:22.095 : en:Chapter 03
00:07:00.002 : en:Chapter 04
00:10:28.961 : en:Chapter 05
00:14:19.900 : en:Chapter 06
00:21:35.293 : en:Chapter 07
00:24:48.236 : en:Chapter 08
00:29:45.867 : en:Chapter 09
00:31:33.474 : en:Chapter 10
00:33:48.526 : en:Chapter 11
00:34:50.505 : en:Chapter 12
00:36:05.121 : en:Chapter 13
00:38:25.928 : en:Chapter 14
00:39:25.362 : en:Chapter 15
00:40:56.370 : en:Chapter 16
00:42:12.780 : en:Chapter 17
00:44:02.014 : en:Chapter 18
00:45:50.414 : en:Chapter 19
00:47:50.075 : en:Chapter 20
00:50:21.017 : en:Chapter 21
00:53:01.428 : en:Chapter 22
00:56:44.818 : en:Chapter 23
00:58:56.699 : en:Chapter 24
01:00:46.059 : en:Chapter 25
01:03:41.192 : en:Chapter 26
01:06:24.355 : en:Chapter 27
01:11:18.774 : en:Chapter 28
01:14:01.353 : en:Chapter 29
01:15:23.477 : en:Chapter 30
01:17:48.872 : en:Chapter 31
01:21:40.353 : en:Chapter 32
01:23:46.896 : en:Chapter 33
01:28:10.159 : en:Chapter 34
01:30:52.905 : en:Chapter 35
01:33:38.487 : en:Chapter 36
01:35:27.847 : en:Chapter 37
01:42:44.867 : en:Chapter 38
01:45:14.016 : en:Chapter 39
01:49:53.628 : en:Chapter 40
01:56:22.475 : en:Chapter 41
01:57:47.602 : en:Chapter 42
02:00:29.180 : en:Chapter 43
02:04:48.981 : en:Chapter 44
02:07:41.945 : en:Chapter 45
02:11:23.667 : en:Chapter 46
02:12:54.883 : en:Chapter 47
02:14:49.247 : en:Chapter 48
02:15:54.938 : en:Chapter 49

Язык: Русский дублированный + Оригинальная дорожка (отдельно)

Субтитры: Русские (полные, форсированные на инопланетную речь, надписи, пр. (3 вида)), Английские (полные (2 вида), форсированные на инопланетную речь (2 вида)).

Скриншоты для оценки качества (превью — увеличение по клику):

Релиз:
Автор рипа: GYN ©

Извините, но комментарии закрыты.

Tags Comment Meta:
RSS Канал для комментариев