Звездные войны - Star Wars The Complete Saga BDRip 720 от HQ-ViDEO

Звездные войны: Эпизод 3 — Месть Ситхов / Star Wars: Episode III — Revenge of the Sith (2005) BDRip [720]

Релиз от HQ-ViDEO

Звездные войны - Star Wars The Complete Saga BDRip 720 от HQ-ViDEO

Жанр: фантастика, боевик, приключения
Год: 2005
Студия: Lucasfilm
Режиссер: Джордж Лукас /George Lucas/

В ролях: Юэн МакГрегор/Ewan McGregor, Натали Портман /Natalie Portman/, Хейден Кристенсен/Hayden Christensen, Кристофер Ли/Christopher Lee, Сэмюэл Л. Джексон /Samuel L. Jackson/, Иэн МакДайармид/Ian McDiarmid, Энтони Дэниелс/Anthony Daniels, Киша Касл-Хьюз/Keisha Castle-Hughes

Описание: Со времен, описанных во втором эпизоде, прошло 3 года. Энакин окончательно встает на темную сторону силы и превращается в Дарта Вейдера. Республика гибнет под ударами крепнущей Империи, Джедаи теряют контроль над галактикой, а Падме готовится к тому, чтобы стать матерью. Все эти события будут разворачиваться на фоне грандиозной битвы, знаменующей финал Клонических войн…

Код:


*********** Star Wars: Episode III - Revenge of the Sith (2005) ***********

Release Date: 26.09.2011

Release Info:

File Name .....: Zvezdnye.Voiny.E.03.Mest.Sithov.2005.RUS.BDRip.720p.h264.AC3.-HQ-ViDEO.mkv

Runtime .......: 02:20:05
Video Format ..: MKV, H.264
Video Bitrate .: 5 250 Kbps
Bits per Pixel : 0.308
Resolution ....: 1 280x544
Aspect Ratio ..: 2.35:1
Framerate .....: 23.976 fps

Audio First....: Russian AC3 Dolby Digital; 448.00 kbps; 5.1 Ch; 48 kHz
Subtitle.......: Russian, Russian (forced), English

File Size .....: 5.58 GB

Source.........: Blu Ray

IMDb:

Rating.........: 7.8/10
Link...........: http://www.imdb.com/title/tt0121766/

КиноПоиск.Ru:

Rating.........: 8.0/10
Link...........: http://www.kinopoisk.ru/level/1/film/5619/


MI

General
Complete name : Zvezdnye.Voiny.E.03.Mest.Sithov.2005.RUS.BDRip.720p.h264.AC3.-HQ-ViDEO.mkv
Format : Matroska
File size : 5.58 GiB
Duration : 2h 20mn
Overall bit rate : 5 700 Kbps
Movie name : Star Wars: Episode III — Revenge of the Sith (2005)
Encoded date : UTC 2011-09-26 07:31:42
Writing application : mkvmerge v3.3.0 (‘Language’) built on Mar 24 2010 14:59:24
Writing library : libebml v0.8.0 + libmatroska v0.9.0

Video
ID : 1
Format : AVC
Format/Info : Advanced Video Codec
Format profile : High@L4.1
Format settings, CABAC : Yes
Format settings, ReFrames : 6 frames
Codec ID : V_MPEG4/ISO/AVC
Duration : 2h 20mn
Bit rate mode : Variable
Bit rate : 5 250 Kbps
Width : 1 280 pixels
Height : 544 pixels
Display aspect ratio : 2.35:1
Frame rate : 23.976 fps
Color space : YUV
Chroma subsampling : 4:2:0
Bit depth : 8 bits
Scan type : Progressive
Bits/(Pixel*Frame) : 0.308
Stream size : 5.03 GiB (90%)
Title : Encoded by GYN

Audio
ID : 2
Format : AC-3
Format/Info : Audio Coding 3
Mode extension : CM (complete main)
Codec ID : A_AC3
Duration : 2h 20mn
Bit rate mode : Constant
Bit rate : 448 Kbps
Channel(s) : 6 channels
Channel positions : Front: L C R, Side: L R, LFE
Sampling rate : 48.0 KHz
Bit depth : 16 bits
Compression mode : Lossy
Stream size : 449 MiB (8%)
Title : DUB
Language : Russian

Text #1
ID : 3
Format : UTF-8
Codec ID : S_TEXT/UTF8
Codec ID/Info : UTF-8 Plain Text
Title : Forced
Language : Russian

Text #2
ID : 4
Format : UTF-8
Codec ID : S_TEXT/UTF8
Codec ID/Info : UTF-8 Plain Text
Language : Russian

Text #3
ID : 5
Format : UTF-8
Codec ID : S_TEXT/UTF8
Codec ID/Info : UTF-8 Plain Text
Language : English

Menu
00:00:00.000 : en:Chapter 00
00:00:23.523 : en:Chapter 01
00:01:50.068 : en:Chapter 02
00:08:28.132 : en:Chapter 03
00:11:23.349 : en:Chapter 04
00:18:33.737 : en:Chapter 05
00:23:40.460 : en:Chapter 06
00:27:37.697 : en:Chapter 07
00:29:12.959 : en:Chapter 08
00:33:18.913 : en:Chapter 09
00:35:45.434 : en:Chapter 10
00:36:47.997 : en:Chapter 11
00:38:21.465 : en:Chapter 12
00:40:17.456 : en:Chapter 13
00:41:18.601 : en:Chapter 14
00:42:41.058 : en:Chapter 15
00:48:01.587 : en:Chapter 16
00:50:20.517 : en:Chapter 17
00:52:24.933 : en:Chapter 18
00:53:58.026 : en:Chapter 19
00:56:26.466 : en:Chapter 20
01:00:56.277 : en:Chapter 21
01:01:56.546 : en:Chapter 22
01:05:26.047 : en:Chapter 23
01:07:40.598 : en:Chapter 24
01:09:06.976 : en:Chapter 25
01:10:52.998 : en:Chapter 26
01:15:19.223 : en:Chapter 27
01:19:15.250 : en:Chapter 28
01:20:37.457 : en:Chapter 29
01:24:20.597 : en:Chapter 30
01:27:56.521 : en:Chapter 31
01:29:57.391 : en:Chapter 32
01:33:40.406 : en:Chapter 33
01:36:39.460 : en:Chapter 34
01:38:35.534 : en:Chapter 35
01:41:24.369 : en:Chapter 36
01:42:57.004 : en:Chapter 37
01:48:18.783 : en:Chapter 38
01:50:59.444 : en:Chapter 39
01:52:44.007 : en:Chapter 40
01:54:22.855 : en:Chapter 41
01:56:54.924 : en:Chapter 42
02:02:20.875 : en:Chapter 43
02:03:32.863 : en:Chapter 44
02:05:19.637 : en:Chapter 45
02:07:37.107 : en:Chapter 46
02:08:57.062 : en:Chapter 47
02:12:04.958 : en:Chapter 48
02:13:47.352 : en:Chapter 49

Язык: Русский дублированный + Оригинальная дорожка (448/отдельно)

Субтитры: Русские (полные, форсированные), Английские (полные).
Субтитры: Русские (полные (2 вида: R5, Tycoon), форсированные на инопланетрую речь, надписи, пр.), Английские (полные (2 вида), форсированные на инопланетрую речь).

Скриншоты для оценки качества (превью — увеличение по клику):

Релиз:
Автор рипа: GYN ©

Извините, но комментарии закрыты.

Tags Comment Meta:
RSS Канал для комментариев