Автор Alien

Охотники на троллей / TrollHunter / Trolljegeren (2010) BDRip-AVC от HQ-ViDEO

Охотники на троллей TrollHunter Trolljegeren 2010 BDRip-AVC от HQ-ViDEO

Охотники на троллей / Trolljegeren (2010) BDRip-AVC

Релиз от HQ-ViDEO

Охотники на троллей TrollHunter Trolljegeren 2010 BDRip-AVC от HQ-ViDEO

Жанр: Триллер, Драма, Приключения
Год выпуска: 2010
Студия: Filmkameratene A/S, Film Fund FUZZ
Режиссер: Андре Овредал / Andr Ovredal

В ролях: Отто Есперсен /Otto Jespersen/, Гленн Эрланд Тостеруд /Glenn Erland Tosterud/, Йоханна Мерк /Johanna Mrck/, Томас Альф Ларсен /Tomas Alf Larsen/, Урмила Берг-Домаас /Urmila Berg-Domaas/, Ганс Мортен Хансен /Hans Morten Hansen/, Роберт Столтенберг /Robert Stoltenberg/, Ейрик Бех /Eirik Bech/, Инге Эрик Хнейесанд /Inge Erik Hnejesand/, Том Ёргенсон /Tom Jrgensen/

Описание: Группа студентов узнаёт, что правительство скрывает от широких масс информацию о существовании троллей на севере Норвегии. Отважные ребята и девушки самостоятельно с помощью подручных средств уничтожают великанов, представляющих огромную опасность.

Код:


*********** Trolljegeren (2011) ***********

Release Date: 24.09.2011

Release Info:
File Name .....: Ohotniki.Na.Trollei.2010.TRIPLE.BDRip-AVC.AC3.-HQ-ViDEO.mkv

Author.........: Vaippp

Runtime .......: 01:43:42 min
Video Format ..: MKV, H.264 codec
Video Bitrate .: 2 675 kbps
Bits per Pixel : 0.19 bit/pixel
Resolution ....: 1020 x 552
Aspect Ratio ..: 1.85:1
Framerate .....: 23.976 fps

Audio First....: Russian AC3 Dolby Digital; 448.00 kbps; 5.1 Ch; 48 kHz
Audio Second...: Norwegian AC3 Dolby Digital; 448.00 kbps; 5.1 Ch; 48 kHz
Audio Third....: English AC3 Dolby Digital; 448.00 kbps; 5.1 Ch; 48 kHz

Subtitle.......: Russian; English

File Size .....: 2979,56 Mb (2/3 DVDR)

Source.........: Blu-Ray EUR Remux

IMDb:

Rating.........: 7.1/10
Link...........: http://www.imdb.com/title/tt1740707/

kinopoisk.ru:

Rating.........: 6.496/10
Link...........: http://www.kinopoisk.ru/level/1/film/569576/

Log

Код:

avs [info]: 1020x552p 1:1 @ 24000/1001 fps (cfr)
x264 [info]: using SAR=1/1
x264 [info]: using cpu capabilities: MMX2 SSE2Fast SSSE3 FastShuffle SSE4.2
x264 [info]: profile High, level 4.1

x264 [info]: frame I:758 Avg QP:19.43 size: 54119
x264 [info]: frame P:32315 Avg QP:21.17 size: 20991
x264 [info]: frame B:116111 Avg QP:22.19 size: 11693
x264 [info]: consecutive B-frames: 2.2% 3.2% 6.2% 26.0% 11.3% 32.9% 3.7% 5.8% 1.1% 2.7% 3.2% 1.7%
x264 [info]: mb I I16..4: 10.9% 77.0% 12.1%
x264 [info]: mb P I16..4: 2.1% 11.1% 0.8% P16..4: 46.7% 21.4% 12.6% 0.0% 0.0% skip: 5.2%
x264 [info]: mb B I16..4: 0.1% 1.2% 0.1% B16..8: 45.1% 12.5% 3.0% direct: 8.9% skip:29.1% L0:45.1% L1:48.6% BI: 6.3%
x264 [info]: 8×8 transform intra:81.2% inter:66.8%
x264 [info]: direct mvs spatial:98.5% temporal:1.5%
x264 [info]: coded y,uvDC,uvAC intra: 82.9% 67.6% 37.9% inter: 37.1% 24.4% 6.1%
x264 [info]: i16 v,h,dc,p: 35% 18% 11% 37%
x264 [info]: i8 v,h,dc,ddl,ddr,vr,hd,vl,hu: 9% 7% 5% 11% 16% 13% 15% 10% 13%
x264 [info]: i4 v,h,dc,ddl,ddr,vr,hd,vl,hu: 11% 9% 3% 9% 16% 13% 16% 9% 13%
x264 [info]: i8c dc,h,v,p: 41% 27% 16% 15%
x264 [info]: Weighted P-Frames: Y:5.7% UV:3.1%
x264 [info]: ref P L0: 47.9% 9.9% 15.5% 7.0% 5.4% 4.7% 3.9% 2.8% 2.6% 0.4% 0.0%
x264 [info]: ref B L0: 68.5% 12.5% 7.3% 3.9% 3.2% 2.6% 1.5% 0.5%
x264 [info]: ref B L1: 90.8% 9.2%
x264 [info]: kb/s:2670.56

MediaInfo

Код:

General
Unique ID : 207504075756929994562289047258599711087 (0x9C1BD4D09E5B36728CABA31647EAE16F)
Complete name : I:\Ohotniki.Na.Trollei.2010.TRIPLE.BDRip-AVC.AC3.-HQ-ViDEO.mkv
Format : Matroska
Format version : Version 2
File size : 2.91 GiB
Duration : 1h 43mn
Overall bit rate : 4 017 Kbps
Movie name : Ohotniki Na Trollei / 2010 / Release by Vaippp / HQ-ViDEO
Encoded date : UTC 2011-09-24 04:47:46
Writing application : mkvmerge v4.9.1 (‘Ich will’) сборка от Jul 11 2011 23:53:15
Writing library : libebml v1.2.1 + libmatroska v1.1.1

Video
ID : 1
Format : AVC
Format/Info : Advanced Video Codec
Format profile : High@L4.1
Format settings, CABAC : Yes
Format settings, ReFrames : 9 frames
Codec ID : V_MPEG4/ISO/AVC
Duration : 1h 43mn
Bit rate : 2 675 Kbps
Width : 1 020 pixels
Height : 552 pixels
Display aspect ratio : 16:9
Frame rate : 23.976 fps
Color space : YUV
Chroma subsampling : 4:2:0
Bit depth : 8 bits
Scan type : Progressive
Bits/(Pixel*Frame) : 0.198
Stream size : 1.88 GiB (65%)
Title : BDRip 24/09/2011
Writing library : x264 core 118 r2085 8a62835
Encoding settings : cabac=1 / ref=9 / deblock=1:-2:-2 / analyse=0×3:0×113 / me=umh / subme=9 / psy=1 / psy_rd=0.90:0.03 / mixed_ref=1 / me_range=48 / chroma_me=1 / trellis=2 / 8x8dct=1 / cqm=0 / deadzone=21,11 / fast_pskip=0 / chroma_qp_offset=-3 / threads=12 / sliced_threads=0 / nr=0 / decimate=0 / interlaced=0 / bluray_compat=0 / constrained_intra=0 / bframes=11 / b_pyramid=2 / b_adapt=2 / b_bias=0 / direct=3 / weightb=1 / open_gop=0 / weightp=2 / keyint=250 / keyint_min=23 / scenecut=40 / intra_refresh=0 / rc_lookahead=40 / rc=2pass / mbtree=0 / bitrate=2675 / ratetol=1.0 / qcomp=0.60 / qpmin=0 / qpmax=69 / qpstep=4 / cplxblur=20.0 / qblur=0.5 / vbv_maxrate=40000 / vbv_bufsize=30000 / nal_hrd=none / ip_ratio=1.40 / pb_ratio=1.30 / aq=2:1.10 / zones=142962,149183,b=0.5
Language : English
Matrix coefficients : BT.709-5, BT.1361, IEC 61966-2-4 709, SMPTE RP177

Audio #1
ID : 2
Format : AC-3
Format/Info : Audio Coding 3
Mode extension : CM (complete main)
Codec ID : A_AC3
Duration : 1h 43mn
Bit rate mode : Constant
Bit rate : 448 Kbps
Channel(s) : 6 channels
Channel positions : Front: L C R, Side: L R, LFE
Sampling rate : 48.0 KHz
Bit depth : 16 bits
Compression mode : Lossy
Stream size : 332 MiB (11%)
Title : DUB | Blu-Ray
Language : Russian

Audio #2
ID : 3
Format : AC-3
Format/Info : Audio Coding 3
Mode extension : CM (complete main)
Codec ID : A_AC3
Duration : 1h 43mn
Bit rate mode : Constant
Bit rate : 448 Kbps
Channel(s) : 6 channels
Channel positions : Front: L C R, Side: L R, LFE
Sampling rate : 48.0 KHz
Bit depth : 16 bits
Compression mode : Lossy
Stream size : 332 MiB (11%)
Title : Original
Language : Norwegian

Audio #3
ID : 4
Format : AC-3
Format/Info : Audio Coding 3
Mode extension : CM (complete main)
Codec ID : A_AC3
Duration : 1h 43mn
Bit rate mode : Constant
Bit rate : 448 Kbps
Channel(s) : 6 channels
Channel positions : Front: L C R, Side: L R, LFE
Sampling rate : 48.0 KHz
Bit depth : 16 bits
Compression mode : Lossy
Stream size : 332 MiB (11%)
Language : English

Text #1
ID : 5
Format : UTF-8
Codec ID : S_TEXT/UTF8
Codec ID/Info : UTF-8 Plain Text
Language : Russian

Text #2
ID : 6
Format : UTF-8
Codec ID : S_TEXT/UTF8
Codec ID/Info : UTF-8 Plain Text
Language : English

Menu
00:00:00.000 : en:00:00:00.000
00:10:50.775 : en:00:10:50.775
00:20:31.063 : en:00:20:31.063
00:31:23.673 : en:00:31:23.673
00:40:55.453 : en:00:40:55.453
00:52:24.141 : en:00:52:24.141
01:02:40.173 : en:01:02:40.173
01:13:07.216 : en:01:13:07.216
01:23:19.703 : en:01:23:19.703
01:28:27.219 : en:01:28:27.219
01:34:54.022 : en:01:34:54.022
01:40:24.268 : en:01:40:24.268

Язык: Русский дублированный + Оригинальная дорожка (Норвежская) + Английская дорожка

Субтитры: Русские, Английские.

Скриншоты для оценки качества:

Сэмпл: http://multi-up.com/562706

Релиз:

Автор рипа: Vaippp

Извините, но комментарии закрыты.

Tags Comment Meta:
RSS Канал для комментариев