Том и Джерри и Волшебник из страны Оз Tom and Jerry The Wizard of Oz 2011 BDRip от HQ-ViDEO

Том и Джерри и Волшебник из страны Оз / Tom and Jerry & The Wizard of Oz (2011) BDRip-AVC

Релиз от HQ-ViDEO

Том и Джерри и Волшебник из страны Оз Tom and Jerry The Wizard of Oz 2011 BDRip от HQ-ViDEO

Жанр: Мультфильм, Семейный
Год выпуска: 2011
Студия: Turner Entertainment Co., Warner Bros. Animation
Режиссер: Спайк Брандт /Spike Brandt/

В ролях: Роб Полсен /Rob Paulsen/, Тодд Стэшвик /Todd Stashwick/, Лорейн Ньюмен /Laraine Newman/

Описание: Том и Джерри парят над радугой и двигаются вниз по дороге из желтого кирпича и на пути им встречаются всем знакомые анимированные персонажи и пересказ классической истории.

Код:


*********** Tom and Jerry & The Wizard of Oz (2011) ***********

Release Date: 20.09.2011

Release Info:
File Name .....: Tom.I.Dzherri.I.Volshebnik.Iz.Strany.Oz.2011.TRIPLE.BDRip-AVC.AC3.-HQ-ViDEO.mkv

Author.........: Vaippp

Runtime .......: 00:59:00 min
Video Format ..: MKV, H.264 codec
Video Bitrate .: 2 432 kbps
Bits per Pixel : 0.37 bit/pixel
Resolution ....: 1024 x 576
Aspect Ratio ..: 16:9
Framerate .....: 23.976 fps

Audio First....: Russian AC3 Dolby Digital; 192.00 kbps; 2.0 Ch; 48 kHz
Audio Second...: Russian AC3 Dolby Digital; 448.00 kbps; 5.1 Ch; 48 kHz
Audio Third....: English AC3 Dolby Digital; 448.00 kbps; 5.1 Ch; 48 kHz

Subtitle.......: Russian; English

File Size .....: 1491,60 Mb (1/3 DVDR)

Source.........: Blu-Ray Remux

IMDb:

Rating.........: 6.4/10
Link...........: http://www.imdb.com/title/tt2027255/

kinopoisk.ru:

Rating.........: 5.1/10
Link...........: http://www.kinopoisk.ru/level/1/film/612822/

Log

Код:


avs [info]: 1024x576p 1:1 @ 24000/1001 fps (cfr)
x264 [info]: using SAR=1/1
x264 [info]: using cpu capabilities: MMX2 SSE2Fast SSSE3 FastShuffle SSE4.2
x264 [info]: profile High, level 4.1

x264 [info]: frame I:914 Avg QP:14.19 size:104578
x264 [info]: frame P:22278 Avg QP:17.59 size: 19654
x264 [info]: frame B:61974 Avg QP:18.86 size: 8816
x264 [info]: consecutive B-frames: 4.3% 4.5% 13.5% 38.2% 13.1% 17.5% 3.2% 3.3% 1.0% 0.9% 0.5%
x264 [info]: mb I I16..4: 6.2% 52.8% 41.0%
x264 [info]: mb P I16..4: 1.3% 4.2% 3.6% P16..4: 30.5% 12.1% 11.5% 0.0% 0.0% skip:36.9%
x264 [info]: mb B I16..4: 0.2% 0.5% 0.6% B16..8: 19.7% 6.3% 3.9% direct: 2.5% skip:66.4% L0:43.9% L1:47.4% BI: 8.7%
x264 [info]: 8×8 transform intra:46.2% inter:28.8%
x264 [info]: direct mvs spatial:97.8% temporal:2.2%
x264 [info]: coded y,uvDC,uvAC intra: 76.9% 69.3% 52.8% inter: 10.7% 9.0% 6.5%
x264 [info]: i16 v,h,dc,p: 42% 21% 6% 31%
x264 [info]: i8 v,h,dc,ddl,ddr,vr,hd,vl,hu: 10% 24% 8% 7% 9% 7% 11% 8% 16%
x264 [info]: i4 v,h,dc,ddl,ddr,vr,hd,vl,hu: 13% 15% 10% 9% 11% 9% 11% 8% 13%
x264 [info]: i8c dc,h,v,p: 42% 31% 17% 10%
x264 [info]: Weighted P-Frames: Y:2.1% UV:1.2%
x264 [info]: ref P L0: 54.1% 4.0% 15.8% 6.7% 4.7% 4.2% 3.2% 2.0% 1.6% 1.6% 1.5% 0.5% 0.0%
x264 [info]: ref B L0: 64.4% 13.8% 7.6% 3.8% 3.0% 2.4% 2.1% 1.5% 0.9% 0.4%
x264 [info]: ref B L1: 90.2% 9.8%
x264 [info]: kb/s:2431.92

MediaInfo

Код:

General
Unique ID : 226777697956851786404216752032077582596 (0xAA9BCBC181C2273DADE7897FA8641104)
Complete name : I:\Other\Tom.I.Dzherri.I.Volshebnik.Iz.Strany.Oz.2011.TRIPLE.BDRip-AVC.AC3.-HQ-ViDEO.mkv
Format : Matroska
Format version : Version 2
File size : 1.46 GiB
Duration : 59mn 13s
Overall bit rate : 3 522 Kbps
Movie name : Tom I Dzherri I Volshebnik Iz Strany Oz / 2011 / Release by Vaippp / HQ-ViDEO
Encoded date : UTC 2011-09-20 14:02:01
Writing application : mkvmerge v4.9.1 (‘Ich will’) сборка от Jul 11 2011 23:53:15
Writing library : libebml v1.2.1 + libmatroska v1.1.1

Video
ID : 1
Format : AVC
Format/Info : Advanced Video Codec
Format profile : High@L4.1
Format settings, CABAC : Yes
Format settings, ReFrames : 11 frames
Codec ID : V_MPEG4/ISO/AVC
Duration : 59mn 13s
Bit rate : 2 432 Kbps
Width : 1 024 pixels
Height : 576 pixels
Display aspect ratio : 16:9
Frame rate : 23.976 fps
Color space : YUV
Chroma subsampling : 4:2:0
Bit depth : 8 bits
Scan type : Progressive
Bits/(Pixel*Frame) : 0.172
Stream size : 1 001 MiB (67%)
Title : BDRip 20/09/2011
Writing library : x264 core 116 r2074 2641b9e
Encoding settings : cabac=1 / ref=11 / deblock=1:-1:-1 / analyse=0×3:0×113 / me=umh / subme=10 / psy=1 / psy_rd=0.75:0.00 / mixed_ref=1 / me_range=16 / chroma_me=1 / trellis=2 / 8x8dct=1 / cqm=0 / deadzone=21,11 / fast_pskip=0 / chroma_qp_offset=-2 / threads=12 / sliced_threads=0 / nr=0 / decimate=0 / interlaced=0 / bluray_compat=0 / constrained_intra=0 / bframes=10 / b_pyramid=2 / b_adapt=2 / b_bias=0 / direct=3 / weightb=1 / open_gop=0 / weightp=2 / keyint=250 / keyint_min=23 / scenecut=40 / intra_refresh=0 / rc_lookahead=40 / rc=2pass / mbtree=0 / bitrate=2432 / ratetol=1.0 / qcomp=0.55 / qpmin=0 / qpmax=65 / qpstep=4 / cplxblur=20.0 / qblur=0.5 / vbv_maxrate=40000 / vbv_bufsize=30000 / nal_hrd=none / ip_ratio=1.35 / pb_ratio=1.25 / aq=2:0.70 / zones=79261,85165,b=0.5
Language : English
Matrix coefficients : BT.709-5, BT.1361, IEC 61966-2-4 709, SMPTE RP177

Audio #1
ID : 2
Format : AC-3
Format/Info : Audio Coding 3
Mode extension : CM (complete main)
Codec ID : A_AC3
Duration : 59mn 13s
Bit rate mode : Constant
Bit rate : 192 Kbps
Channel(s) : 2 channels
Channel positions : Front: L R
Sampling rate : 48.0 KHz
Bit depth : 16 bits
Compression mode : Lossy
Stream size : 81.3 MiB (5%)
Title : DUB
Language : Russian

Audio #2
ID : 3
Format : AC-3
Format/Info : Audio Coding 3
Mode extension : CM (complete main)
Codec ID : A_AC3
Duration : 59mn 13s
Bit rate mode : Constant
Bit rate : 448 Kbps
Channel(s) : 6 channels
Channel positions : Front: L C R, Side: L R, LFE
Sampling rate : 48.0 KHz
Bit depth : 16 bits
Compression mode : Lossy
Stream size : 190 MiB (13%)
Title : AVO | V.Belov
Language : Russian

Audio #3
ID : 4
Format : AC-3
Format/Info : Audio Coding 3
Mode extension : CM (complete main)
Codec ID : A_AC3
Duration : 59mn 13s
Bit rate mode : Constant
Bit rate : 448 Kbps
Channel(s) : 6 channels
Channel positions : Front: L C R, Side: L R, LFE
Sampling rate : 48.0 KHz
Bit depth : 16 bits
Compression mode : Lossy
Stream size : 190 MiB (13%)
Title : Original
Language : English

Text #1
ID : 5
Format : UTF-8
Codec ID : S_TEXT/UTF8
Codec ID/Info : UTF-8 Plain Text
Language : Russian

Text #2
ID : 6
Format : UTF-8
Codec ID : S_TEXT/UTF8
Codec ID/Info : UTF-8 Plain Text
Language : English

Menu
00:00:00.000 : en:00:00:00.000
00:01:38.139 : en:00:01:38.139
00:08:21.709 : en:00:08:21.709
00:17:14.533 : en:00:17:14.533
00:25:57.931 : en:00:25:57.931
00:35:33.881 : en:00:35:33.881
00:43:46.290 : en:00:43:46.290
00:50:36.158 : en:00:50:36.158
00:55:05.802 : en:00:55:05.802

Язык: Русский дублированный + Русский авторский перевод (В.Белов) + Оригинальная дорожка (Английская)

Субтитры: Русские, Английские (SDH).

Скриншоты для оценки качества:

Сэмпл: http://multi-up.com/560592

Релиз:

Автор рипа: Vaippp

Извините, но комментарии закрыты.

Tags Comment Meta:
RSS Канал для комментариев