Автор Alien

Легенды ночных стражей / Legend of the Guardians: The Owls of Ga’Hoole (2010) BDRip-AVC от HQ-ViDEO

Легенды ночных стражей Legend of the Guardians The Owls of Ga Hoole 2010 BDRip-AVC от HQ-ViDEO

Легенды ночных стражей / Legend of the Guardians: The Owls of Ga’Hoole (2010) BDRip-AVC

Релиз от HQ-ViDEO

Легенды ночных стражей Legend of the Guardians The Owls of Ga Hoole 2010 BDRip-AVC от HQ-ViDEO

Жанр: Мультфильм, Фэнтези, Приключения
Год выпуска: 2010
Студия: Warner Bros. Pictures, Village Roadshow Pictures, Animal Logic
Режиссер: Зак Снайдер /Zack Snyder/

В ролях: Джим Стёрджесс /Jim Sturgess/, Райан Квантен /Ryan Kwanten/, Джоэл Эдгертон /Joel Edgerton/, Хелен Миррен /Helen Mirren/, Джеффри Раш /Geoffrey Rush/, Эдриэнн ДеФариа /Adrienne DeFaria/, Эмили Барклай /Emily Barclay/, Сэм Нил /Sam Neill/, Энтони ЛаПалья /Anthony LaPaglia/, Дэвид Уэнэм /David Wenham/

Описание: Миром, в котором уже не осталось людей, правят совы добрые злые как и всегда! В волшебном лесу — королевстве сов Тито — на Великом Дереве Га`Хуул, где разумные совы живут в гармонии, наступают мрачные времена. Королевство подвергается страшной опасности со стороны соседних жестоких правителей, и эта опасность грозит уничтожить привычное мироздание.

Код:


*********** Legend of the Guardians: The Owls of Ga’Hoole (2010) ***********

Release Date: 30.08.2011

Release Info:
File Name .....: Legendy.Nochnyh.Strazhei.2010.DUAL.BDRip-AVC.AC3.-HQ-ViDEO.mkv

Author.........: Vaippp

Runtime .......: 01:36:47 min
Video Format ..: MKV, H.264 codec
Video Bitrate .: 2 468 kbps
Bits per Pixel : 0.23 bit/pixel
Resolution ....: 1024 x 436
Aspect Ratio ..: 2.35:1
Framerate .....: 23.976 fps

Audio First....: Russian AC3 Dolby Digital; 384.00 kbps; 5.1 Ch; 48 kHz
Audio Second...: English AC3 Dolby Digital; 384.00 kbps; 5.1 Ch; 48 kHz

Subtitle.......: Russian; English

File Size .....: 2235,37 Mb (1/2 DVDR)

Source.........: Blu-Ray Remux CEE

IMDb:
Rating.........: 7.0/10
Link...........: http://www.imdb.com/title/tt1219342/

КиноПоиск.Ru:
Rating.........: 7.551/10
Link...........: http://www.kinopoisk.ru/level/1/film/409776/

Log

Код:

 x264 [info]: frame I:1097  Avg QP:15.94  size: 60969
x264 [info]: frame P:41151 Avg QP:20.06 size: 20797
x264 [info]: frame B:96999 Avg QP:21.68 size: 8888
x264 [info]: consecutive B-frames: 5.4% 7.6% 13.3% 47.9% 13.7% 11.1% 1.0%

MediaInfo

Код:

General
Unique ID : 237914203788014096265782125566548142840 (0xB2FC9BE2A4735B7B8544D9F8845E6AF8)
Complete name : I:\Other\Legendy.Nochnyh.Strazhei.2010.DUAL.BDRip-AVC.AC3.-HQ-ViDEO.mkv
Format : Matroska
Format version : Version 2
File size : 2.18 GiB
Duration : 1h 36mn
Overall bit rate : 3 229 Kbps
Movie name : Legendy Nochnyh Strazhei / 2010 / Release by Vaippp / HQ-ViDEO
Encoded date : UTC 2011-08-30 04:10:48
Writing application : mkvmerge v4.9.1 (‘Ich will’) сборка от Jul 11 2011 23:53:15
Writing library : libebml v1.2.1 + libmatroska v1.1.1

Video
ID : 1
Format : AVC
Format/Info : Advanced Video Codec
Format profile : High@L4.1
Format settings, CABAC : Yes
Format settings, ReFrames : 7 frames
Codec ID : V_MPEG4/ISO/AVC
Duration : 1h 36mn
Bit rate : 2 460 Kbps
Width : 1 024 pixels
Height : 436 pixels
Display aspect ratio : 2.35:1
Frame rate : 23.976 fps
Color space : YUV
Chroma subsampling : 4:2:0
Bit depth : 8 bits
Scan type : Progressive
Bits/(Pixel*Frame) : 0.230
Stream size : 1.62 GiB (74%)
Title : BDRip 30/08/2011
Writing library : x264 core 116 r2074 2641b9e
Encoding settings : cabac=1 / ref=7 / deblock=1:-1:-1 / analyse=0×3:0×113 / me=umh / subme=11 / psy=1 / psy_rd=0.80:0.00 / mixed_ref=1 / me_range=16 / chroma_me=1 / trellis=2 / 8x8dct=1 / cqm=0 / deadzone=21,11 / fast_pskip=0 / chroma_qp_offset=-1 / threads=12 / sliced_threads=0 / nr=0 / decimate=0 / interlaced=0 / bluray_compat=0 / constrained_intra=0 / bframes=6 / b_pyramid=2 / b_adapt=2 / b_bias=0 / direct=3 / weightb=1 / open_gop=0 / weightp=2 / keyint=250 / keyint_min=23 / scenecut=40 / intra_refresh=0 / rc_lookahead=40 / rc=2pass / mbtree=0 / bitrate=2460 / ratetol=1.0 / qcomp=0.55 / qpmin=0 / qpmax=65 / qpstep=4 / cplxblur=20.0 / qblur=0.5 / vbv_maxrate=40000 / vbv_bufsize=30000 / nal_hrd=none / ip_ratio=1.40 / pb_ratio=1.30 / aq=2:0.70 / zones=127269,139246,b=0.6
Language : English
Matrix coefficients : BT.709-5, BT.1361, IEC 61966-2-4 709, SMPTE RP177

Audio #1
ID : 2
Format : AC-3
Format/Info : Audio Coding 3
Mode extension : CM (complete main)
Codec ID : A_AC3
Duration : 1h 36mn
Bit rate mode : Constant
Bit rate : 384 Kbps
Channel(s) : 6 channels
Channel positions : Front: L C R, Side: L R, LFE
Sampling rate : 48.0 KHz
Bit depth : 16 bits
Compression mode : Lossy
Stream size : 266 MiB (12%)
Title : DUB | Blu-Ray CEE
Language : Russian

Audio #2
ID : 3
Format : AC-3
Format/Info : Audio Coding 3
Mode extension : CM (complete main)
Codec ID : A_AC3
Duration : 1h 36mn
Bit rate mode : Constant
Bit rate : 384 Kbps
Channel(s) : 6 channels
Channel positions : Front: L C R, Side: L R, LFE
Sampling rate : 48.0 KHz
Bit depth : 16 bits
Compression mode : Lossy
Stream size : 266 MiB (12%)
Title : Original
Language : English

Text #1
ID : 4
Format : UTF-8
Codec ID : S_TEXT/UTF8
Codec ID/Info : UTF-8 Plain Text
Language : Russian

Text #2
ID : 5
Format : UTF-8
Codec ID : S_TEXT/UTF8
Codec ID/Info : UTF-8 Plain Text
Language : English

Menu
00:00:00.000 : :Chapter 01
00:10:52.026 : :Chapter 02
00:20:10.417 : :Chapter 03
00:30:07.138 : :Chapter 04
00:40:01.273 : :Chapter 05
00:49:57.828 : :Chapter 06
01:00:34.297 : :Chapter 07
01:09:45.180 : :Chapter 08
01:18:58.149 : :Chapter 09
01:28:04.195 : :Chapter 10

Язык: Русский дублированный + Оригинальная дорожка (Английская) + Украинская дорожка (384/Отдельно)

Субтитры: Русские (2 вида), Английские (полные, SDH).

Скриншоты для оценки качества:

Сэмпл: http://multi-up.com/548292

Релиз:

Автор рипа: Vaippp

Извините, но комментарии закрыты.

Tags Comment Meta:
RSS Канал для комментариев