Автор Alien

Маша и Медведь (2009 — 2011) BDRip [720p] Релиз от HQ-ViDEO

Маша и Медведь (2009 - 2011) BD

Маша и Медведь (2009 — 2011) BDRip [720p]
Релиз от HQ-ViDEO

Маша и Медведь (2009 - 2011) BD

Жанр: Мультфильм

Год: 2009-2011
Студия: Animaccord Animation Studio
Режиссер: Олег Кузовков, Олег Ужинов, Денис Червяцов

В ролях: Алина Кукушкина, Эдуард Назаров, Борис Кутневич.

Описание: Мультсериал про девочку Машу, которая никому не дает покоя, и в первую очередь — своему другу Медведю…

2009 год
«Первая встреча»
«До весны не будить!»
«Раз, два, три! Ёлочка, гори!»
«Весна пришла!»
«Ловись рыбка!»
«Следы невиданных зверей»
2010 год
«С волками жить…»
«Позвони мне, позвони!»
«День варенья»
«Праздник на льду»
«Первый раз в первый класс»
«Граница на замке»
«Кто не спрятался, я не виноват!»
2011 год
«Лыжню!»
«Будьте здоровы!»
«Маша + каша»

Код:

            *********** Маша и Медведь (2009 - 2011) ***********

Release Date: 14.06.2011
Release Info:
File Name .....: Masha.I.Medved.1-16.Serii.RUS.BDRip.720p.h264.AC3.-HQ-ViDEO.mkv

Author ........: GYN

Runtime .......: 01:54:52 min
Video Format ..: MKV, H.264 codec
Video Bitrate .: 4 886 kbps
Bits per Pixel : 0.221 bit/pixel
Resolution ....: 1 280 x 720
Aspect Ratio ..: 16:9
Framerate .....: 24.000 fps

Audio First....: Russian AC3 Dolby Digital; 448.00 kbps; 5.1 Ch; 48 kHz

Subtitle.......: No.

File Size .....: 4.37 GB
Source.........: Blu-ray Disc

КиноПоиск.Ru:
Rating.........: 7.86/10
Link...........: http://www.kinopoisk.ru/level/1/film/478491/


MediaInfo


General
Complete name : Masha.I.Medved.1-16.Serii.RUS.BDRip.720p.h264.AC3.-HQ-ViDEO.mkv
Format : Matroska
File size : 4.37 GiB
Duration : 1h 54mn
Overall bit rate : 5 442 Kbps
Movie name : Маша и Медведь (2009-2011) 16 серий
Encoded date : UTC 2011-06-14 07:50:17
Writing application : mkvmerge v3.3.0 (‘Language’) built on Mar 24 2010 14:59:24
Writing library : libebml v0.8.0 + libmatroska v0.9.0

Video
ID : 1
Format : AVC
Format/Info : Advanced Video Codec
Format profile : High@L4.1
Format settings, CABAC : Yes
Format settings, ReFrames : 6 frames
Codec ID : V_MPEG4/ISO/AVC
Duration : 1h 54mn
Bit rate mode : Variable
Bit rate : 4 886 Kbps
Width : 1 280 pixels
Height : 720 pixels
Display aspect ratio : 16:9
Frame rate : 24.000 fps
Color space : YUV
Chroma subsampling : 4:2:0
Bit depth : 8 bits
Scan type : Progressive
Bits/(Pixel*Frame) : 0.221
Stream size : 3.92 GiB (90%)
Title : Encoded by GYN

Audio
ID : 2
Format : AC-3
Format/Info : Audio Coding 3
Mode extension : CM (complete main)
Codec ID : A_AC3
Duration : 1h 54mn
Bit rate mode : Constant
Bit rate : 448 Kbps
Channel(s) : 6 channels
Channel positions : Front: L C R, Side: L R, LFE
Sampling rate : 48.0 KHz
Bit depth : 16 bits
Compression mode : Lossy
Stream size : 368 MiB (8%)
Title : Original
Language : Russian

Menu
00:00:00.000 : ru:«Первая встреча»
00:06:53.458 : ru:«До весны не будить!»
00:13:47.915 : ru:«Раз, два, три! Ёлочка, гори!»
00:21:53.331 : ru:«Весна пришла!»
00:28:55.706 : ru:«Ловись рыбка!»
00:35:50.288 : ru:«Следы невиданных зверей»
00:43:08.829 : ru:«С волками жить…»
00:50:21.078 : ru:«Позвони мне, позвони!»
00:57:32.661 : ru:«День варенья»
01:04:39.952 : ru:«Праздник на льду»
01:11:48.493 : ru:«Первый раз в первый класс»
01:18:56.201 : ru:«Граница на замке»)
01:26:13.992 : ru:«Кто не спрятался, я не виноват!»
01:33:11.533 : ru:«Лыжню!»
01:40:28.324 : ru:«Будьте здоровы!»
01:47:44.156 : ru:«Маша + каша»

Язык: Русский.

Субтитры: Нет.

Скриншоты для оценки качества (превью — увеличение по клику):

Релиз:

Извините, но комментарии закрыты.

Tags Comment Meta:
RSS Канал для комментариев